HD-AREA wünscht Euch eine besinnliche Weihnachtszeit ;)

DNS SERVER AENDERNum der staatlichen Zensur zu umgehen. Sollten wir von eurem Provider geseprrt werden, nutzt den TOR BROWSER oder ändert euren DNS SERVER.

Filmwünsche können bei uns im Forum abgegeben werden

Wir Speichern Nicht




 
 
 
Top Releases
The.Last.Movie.Star.2017.DUA...
The.Infiltrator.2016.German....
The.Equalizer.2.2018.German....
Avengers.Infinity.War.IMAX.2...
Mario.2018.GERMAN.COMPLETE.B...
Mario.2018.GERMAN.1080p.BluR...
Mario.2018.GERMAN.720p.BluRa...
The.Equalizer.2.2018.German....
Espen.und.die.Legende.vom.Be...
Nick.und.Norah.Soundtrack.ei...

Cinedubs
Aufbruch.zum.Mond.German.DL....
Aufbruch.zum.Mond.German.DL....
Night.School.2018.GERMAN.DL....
Night.School.2018.GERMAN.DL....
Gaensehaut.2.Gruseliges.Hall...
Gaensehaut.2.Gruseliges.Hall...
Unknown.User.2.Dark.Web.Germ...
Unknown.User.2.Dark.Web.Germ...
Peppermint.Angel.of.Vengeanc...
Peppermint.Angel.of.Vengeanc...

Neuerscheinungen 2017-18
Frankensteins.Kampf.gegen.di...
Frankensteins.Hoellenbrut.Go...
Wildling.2018.German.AC3.DL....
Sternenjaeger.Abenteuer.Nach...
Das.zweite.Gesicht.1993.Germ...
Bitter.Moon.1992.German.DL.1...
Galaxina.1980.Uncut.German.D...
Wenn.suess.das.Mondlicht.auf...
Fear.and.Loathing.in.Las.Veg...
Frankenstein.und.die.Ungeheu...

XXX
Passion-HD.18.12.01.Vina.Sky...
Private.18.12.01.Victoria.Pu...
PornFidelity.E771.Bridgette....
PlayboyPlus.18.12.03.Olivia....
PlumperPass.18.12.03.Angelin...
PervMom.18.11.29.Kenzie.Tayl...
PornMegaLoad.18.11.30.Alice....
PornStreamLive.18.12.01.Ayli...
NothingButCurves.18.11.30.Ga...
PornstarPlatinum.18.12.02.Ca...
PennyPaxLive.18.11.28.POV.Wi...
PornMegaLoad.18.12.02.Rachae...
Nubiles.18.12.02.Kate.Kenned...
PervMom.18.12.01.Jasmine.Jae...
PlayboyPlus.18.12.02.Playmat...
PornMegaLoad.18.12.01.Ariane...
PornMegaLoad.18.11.30.Nila.M...
POVManiaXXX.18.11.30.Lauren....
Nympho.18.12.01.Autumn.Falls...
NubileFilms.18.12.01.Cindy.S...

3D
Gans.im.Glueck.3D.2018.MULTi...
The.Art.of.Flight.3D.2011.Ge...
The.End.Of.The.World.3D.2010...
The.First.Avenger.Civil.War....
Die.Unglaublichen.2.2018.3D....
Skyscraper.3D.2018.MULTi.COM...
Ant-Man.And.The.Wasp.3D.2018...
Ant.Man.and.the.Wasp.3D.2018...
Die.Unglaublichen.2.3D.2018....
Die.Unglaublichen.2.2018.3D....
Die.Unglaublichen.2.2018.3D....
Sharknado.6.The.Last.One.3D....
Deep.Kleine.Helden.der.Tiefs...
Deep.3D.2017.MULTI.COMPLETE....
Detective.Dee.und.die.Legend...

Old_Stuff
Akte.X.S04.German.DTS.DL.108...
Akte.X.S03.German.DTS.DL.108...
Dunkirk.1958.COMPLETE.BLURAY...
Das.Wunder.von.Manhattan.199...
The.Amazing.Spiderman.2.Rise...
Rise.of.the.Predator.2014.Ge...
Detective.Dee.und.das.Geheim...
Detective.Dee.Und.Der.Fluch....
Ghost.Rider.Spirit.of.Vengea...
Species.IV.Das.Erwachen.2007...
Species.IV.Das.Erwachen.2007...
Hotel.Transsilvanien.2012.Ge...
The.Dead.2010.German.DL.1080...
The.Dead.2.India.2013.German...
Britney.Spears.Live.The.Femm...

Filme
Tidelands.S01.COMPLETE.Germa...
Tidelands.S01.COMPLETE.Germa...
12.Monkeys.S03.GERMAN.DL.108...
12.Monkeys.S03.GERMAN.720p.W...
Outlander.S04.German.DD51.DL...
Outlander.S04.German.DD51.DL...
The.Originals.S05.COMPLETE.G...
Wrecked.-.Voll.abgestuerzt.S...
Ein.Mann.allein.1955.German....
Der.Tatortreiniger.S07.Germa...
Shut.Eye.S01.COMPLETE.German...
Shut.Eye.S01.COMPLETE.German...
Aufbruch.zum.Mond.2018.Germa...
Jesse.James.Mann.ohne.Gesetz...
Bad.Santa.2003.EXTENDED.Germ...
Wedding.Date.2005.German.AC3...
Unheimliche.Begegnung.der.dr...
Kidnapped.-.Du.dachtest.du.b...
The.Equalizer.2.2018.German....
The.Equalizer.2.2018.German....
Zurueck.in.die.Zukunft.1985-...
Beautiful.Girls.1996.German....
Kill.Zone.-.SPL.2005.German....
Black.47.2018.German.DTS.DL....

 
 
12.Monkeys.S03.GERMAN.720p.WEB.H264-FENDT

Jahr: 2017
Genre: Abenteuer | Drama | Mystery
Sprache: Deutsch EAC3
Laufzeit: 43min je Folge
Bitrate: 1600 Kbps
Format: MKV
Größe: 700 MB je Folge
Release:

Beschreibung:

Aus der Zukunft, in der eine Pandemie die menschliche Zivilisation ausgelöscht hat, wird der Zeitreisende Cole in die Zeit vor der Apokalypse entsandt, um dort die Ursache der Katastrophe zu finden und zu eliminieren. Mit Hilfe der Medizinerin Dr. Cassandra Railly versucht er, eine Verschwörung aufzudecken.

 

enthaltene Folgen:

12.Monkeys.S03E01.GERMAN.720p.WEB.H264-FENDT NEU



General
Complete name                            : 12.Monkeys.S03E01.GERMAN.720p.WEB.H264-FENDT\12.Monkeys.S03E01.GERMAN.720p.WEB.H264-FENDT.mkv
Format                                   : Matroska
Format version                           : Version 4 / Version 2
File size                                : 716 MiB
Duration                                 : 43mn 49s
Overall bit rate                         : 2 282 Kbps
Encoded date                             : UTC 2018-12-15 06:58:40
Writing application                      : mkvmerge v28.2.0 ('The Awakening') 64-bit
Writing library                          : libebml v1.3.6 + libmatroska v1.4.9
DURATION                                 : 00:43:08.760000000
NUMBER_OF_FRAMES                         : 860
NUMBER_OF_BYTES                          : 17473
_STATISTICS_WRITING_APP                  : mkvmerge v28.2.0 ('The Awakening') 64-bit
_STATISTICS_WRITING_DATE_UTC             : 2018-12-15 06:58:40
_STATISTICS_TAGS                         : BPS DURATION NUMBER_OF_FRAMES NUMBER_OF_BYTES

Video
ID                                       : 1
Format                                   : AVC
Format/Info                              : Advanced Video Codec
Format profile                           : High@L3.1
Format settings, CABAC                   : Yes
Format settings, ReFrames                : 5 frames
Codec ID                                 : V_MPEG4/ISO/AVC
Duration                                 : 43mn 49s
Bit rate                                 : 1 597 Kbps
Width                                    : 1 280 pixels
Height                                   : 720 pixels
Display aspect ratio                     : 16:9
Frame rate mode                          : Constant
Frame rate                               : 23.976 fps
Color space                              : YUV
Chroma subsampling                       : 4:2:0
Bit depth                                : 8 bits
Scan type                                : Progressive
Bits/(Pixel*Frame)                       : 0.072
Stream size                              : 501 MiB (70%)
Language                                 : German
Default                                  : Yes
Forced                                   : No
Color primaries                          : BT.709
Transfer characteristics                 : BT.709
Matrix coefficients                      : BT.709

Audio
ID                                       : 2
Format                                   : E-AC-3
Format/Info                              : Audio Coding 3
Format settings, Endianness              : Big
Codec ID                                 : A_EAC3
Duration                                 : 43mn 49s
Bit rate mode                            : Constant
Bit rate                                 : 640 Kbps
Channel(s)                               : 6 channels
Channel positions                        : Front: L C R, Side: L R, LFE
Sampling rate                            : 48.0 KHz
Compression mode                         : Lossy
Stream size                              : 201 MiB (28%)
Language                                 : German
Default                                  : Yes
Forced                                   : No

Text
ID                                       : 3
Format                                   : UTF-8
Codec ID                                 : S_TEXT/UTF8
Codec ID/Info                            : UTF-8 Plain Text
Title                                    : English
Language                                 : English
Default                                  : No
Forced                                   : No



Download:
Share-Online.biz Share-Online.bizShare-Online.bizShare-Online.biz | Rapidgator.net Rapidgator.netRapidgator.netRapidgator.net
 

Kommentare