HD-AREA wünscht Euch eine besinnliche Weihnachtszeit ;)

DNS SERVER AENDERNum der staatlichen Zensur zu umgehen. Sollten wir von eurem Provider geseprrt werden, nutzt den TOR BROWSER oder ändert euren DNS SERVER.

Filmwünsche können bei uns im Forum abgegeben werden

Wir Speichern Nicht




 
 
 
Top Releases
The.Guilty.2018.German.AC3D....
The.Guilty.2018.German.AC3D....
Von.Loewen.und.Laemmern.2007...
Von.Loewen.und.Laemmern.2007...
Von.Loewen.und.Laemmern.2007...
Braven.2018.German.AC3.DL.10...
The.Last.Movie.Star.2017.DUA...
The.Infiltrator.2016.German....
The.Equalizer.2.2018.German....
Avengers.Infinity.War.IMAX.2...

Cinedubs
Aufbruch.zum.Mond.German.DL....
Aufbruch.zum.Mond.German.DL....
Night.School.2018.GERMAN.DL....
Night.School.2018.GERMAN.DL....
Gaensehaut.2.Gruseliges.Hall...
Gaensehaut.2.Gruseliges.Hall...
Unknown.User.2.Dark.Web.Germ...
Unknown.User.2.Dark.Web.Germ...
Peppermint.Angel.of.Vengeanc...
Peppermint.Angel.of.Vengeanc...

Neuerscheinungen 2017-18
Alarmstufe.Rot.2.Under.Siege...
Egal.was.kommt.2018.GERMAN.D...
Occupation.2018.GERMAN.DL.10...
Campus.Killer.Das.Boese.Kehr...
Campus.Killer.Das.Boese.Kehr...
Campus.Killer.Das.Boese.Kehr...
Kopfueber.in.die.Nacht.1985....
Panic.Untold.Story.Financial...
Campus.Killer.Das Boese.kehr...
Frankensteins.Kampf.gegen.di...

XXX
ATKHairy.18.12.09.Selesta.XX...
1By-Day.18.12.12.Amber.Jayne...
ATKHairy.18.12.08.Isabel.Ste...
ATKHairy.18.12.10.Bella.Dahl...
1000Facials.18.12.10.Scarlet...
AnalTeenAngels.18.12.11.Stel...
Bang.RealMILFs.18.12.11.Ryde...
AllGirlMassage.18.12.10.Broo...
AmateurCFNM.18.12.11.Mandy.S...
Analized.18.12.07.Victoria.P...
AuntJudys.18.12.07.Nurse.Nat...
Anilos.18.12.10.Kayla.Green....
AbbyWinters.18.12.11.Sarah.Q...
AdultTime.18.12.11.India.Sum...
ATKGirlfriends.18.12.10.Dann...
BCM.18.12.10.Christie.Steven...
Babes.18.12.12.Nia.Nacci.Hea...
ALSScan.18.12.12.Sonia.Red.C...
AllInternal.18.12.10.Ally.St...
AuntJudys.18.12.10.Callidica...

3D
Meg.3D.2018.MULTi.COMPLETE.B...
Meg.3D.2018.German.DL.1080p....
Gans.im.Glueck.3D.2018.MULTi...
The.Art.of.Flight.3D.2011.Ge...
The.End.Of.The.World.3D.2010...
The.First.Avenger.Civil.War....
Die.Unglaublichen.2.2018.3D....
Skyscraper.3D.2018.MULTi.COM...
Ant-Man.And.The.Wasp.3D.2018...
Ant.Man.and.the.Wasp.3D.2018...
Die.Unglaublichen.2.3D.2018....
Die.Unglaublichen.2.2018.3D....
Die.Unglaublichen.2.2018.3D....
Sharknado.6.The.Last.One.3D....
Deep.Kleine.Helden.der.Tiefs...

Old_Stuff
Akte.X.S04.German.DTS.DL.108...
Akte.X.S03.German.DTS.DL.108...
Dunkirk.1958.COMPLETE.BLURAY...
Das.Wunder.von.Manhattan.199...
The.Amazing.Spiderman.2.Rise...
Rise.of.the.Predator.2014.Ge...
Detective.Dee.und.das.Geheim...
Detective.Dee.Und.Der.Fluch....
Ghost.Rider.Spirit.of.Vengea...
Species.IV.Das.Erwachen.2007...
Species.IV.Das.Erwachen.2007...
Hotel.Transsilvanien.2012.Ge...
The.Dead.2010.German.DL.1080...
The.Dead.2.India.2013.German...
Britney.Spears.Live.The.Femm...

Filme
Oh.Yeah.Berlin.2015.German.D...
Oh.Yeah.Berlin.2015.German.D...
Star.Trek.Discovery.S01D01-4...
Das.Grab.der.Lygeia.1964.Ger...
Das.Grab.der.Lygeia.1964.Ger...
Occupation.2018.GERMAN.720p....
Pulp.Fiction.1994.German.AC3...
Running.Man.1987.Collectors....
Sword.with.no.Name.Der.Schat...
Swordman.1990.GERMAN.AC3D.10...
SxCam.2013.German.DL.1080p.B...
Sympathy.for.Delicious.2010....
Rachels.Hochzeit.2008.German...
100.Bloody.Acres.2012.German...
After.the.Sunset.2004.German...
Kopfueber.in.die.Nacht.1985....
Sushi.Girl.2012.German.DL.10...
Sushi.in.Suhl.2012.German.10...
Svengali.2013.German.DL.1080...
Sweatshop.UNCUT.2009.German....
Sweeney.Todd.Der.teuflische....
Passagier.23.Verschwunden.au...
Noch.Zimmer.frei.1962.German...
Future.Man.S01.COMPLETE.Germ...

 
 
The.Guilty.2018.German.AC3D.DL.1080p.BluRay.x264-BluRHD

Jahr: 2018
Genre: Drama, Thriller
Sprache: Deutsch AC3
Laufzeit: 1h 25mn
Bitrate: 10.0 Mbps
Format: MKV
Größe: 5.96 GiB
Release:

Beschreibung:

Der ehemalige Polizist Asger Holm (Jakob Cedergren) arbeitet mittlerweile in einer Notrufzentrale. Eines Tages erhält er einen Anruf von der verängstigten Iben (Jessica Dinnage), die neben ihrem Entführer im Auto sitzt und so tut, als würde sie mit ihrer Tochter telefonieren. Asger will der entführten Frau unbedingt helfen, was aber übers Telefon gar nicht so leicht ist, denn schnell kommt der Entführer hinter Ibens Notruf und bricht die Verbindung ab. Nun beginnt für Asger ein Wettlauf gegen die Zeit. Dabei ist seine einzige Waffe das Telefon. Während er alles in seiner Macht stehende tut, um die Frau ausfindig zu machen, muss er bald feststellen, dass er es mit einem weitaus größeren Verbrechen zu tun hat, als anfangs angenommen…



Complete name                            : bhd-tguil-1080p.mkv
Format                                   : Matroska
Format version                           : Version 2
File size                                : 5.96 GiB
Duration                                 : 1h 25mn
Overall bit rate                         : 10.0 Mbps
Encoded date                             : UTC 2018-12-16 01:22:57
Writing application                      : mkvmerge v4.5.0 ('Speed of Light') gebaut am Feb  1 2011 02:10:32
Writing library                          : libebml v1.2.0 + libmatroska v1.1.0
DURATION                                 : 01:24:41.216000000
NUMBER_OF_FRAMES                         : 158788
NUMBER_OF_BYTES                          : 121949184
_STATISTICS_WRITING_APP                  : mkvmerge v8.8.0 ('Wind at my back') 32bit
_STATISTICS_WRITING_DATE_UTC             : 2018-12-16 01:03:10
_STATISTICS_TAGS                         : BPS DURATION NUMBER_OF_FRAMES NUMBER_OF_BYTES

Video
ID                                       : 1
Format                                   : AVC
Format/Info                              : Advanced Video Codec
Format profile                           : High@L4.1
Format settings, CABAC                   : Yes
Format settings, ReFrames                : 5 frames
Codec ID                                 : V_MPEG4/ISO/AVC
Duration                                 : 1h 25mn
Bit rate                                 : 9 838 Kbps
Width                                    : 1 920 pixels
Height                                   : 808 pixels
Display aspect ratio                     : 2.40:1
Frame rate mode                          : Constant
Frame rate                               : 25.000 fps
Color space                              : YUV
Chroma subsampling                       : 4:2:0
Bit depth                                : 8 bits
Scan type                                : Progressive
Bits/(Pixel*Frame)                       : 0.254
Stream size                              : 5.73 GiB (96%)
Writing library                          : x264 core 157 r2935 545de2f
Encoding settings                        : cabac=1 / ref=5 / deblock=1:0:0 / analyse=0x3:0x113 / me=umh / subme=8 / psy=1 / psy_rd=1.00:0.00 / mixed_ref=1 / me_range=16 / chroma_me=1 / trellis=1 / 8x8dct=1 / cqm=0 / deadzone=21,11 / fast_pskip=1 / chroma_qp_offset=-2 / threads=18 / lookahead_threads=3 / sliced_threads=0 / nr=0 / decimate=1 / interlaced=0 / bluray_compat=0 / constrained_intra=0 / bframes=3 / b_pyramid=2 / b_adapt=2 / b_bias=0 / direct=3 / weightb=1 / open_gop=0 / weightp=2 / keyint=250 / keyint_min=25 / scenecut=40 / intra_refresh=0 / rc_lookahead=50 / rc=2pass / mbtree=1 / bitrate=9838 / ratetol=1.0 / qcomp=0.60 / qpmin=0 / qpmax=69 / qpstep=4 / cplxblur=20.0 / qblur=0.5 / ip_ratio=1.40 / aq=1:1.00
Language                                 : English
Default                                  : Yes
Forced                                   : No
DURATION                                 : 01:25:10.720000000
NUMBER_OF_FRAMES                         : 127768
NUMBER_OF_BYTES                          : 6281627441
_STATISTICS_WRITING_APP                  : mkvmerge v8.8.0 ('Wind at my back') 32bit
_STATISTICS_WRITING_DATE_UTC             : 2018-12-16 01:03:10
_STATISTICS_TAGS                         : BPS DURATION NUMBER_OF_FRAMES NUMBER_OF_BYTES

Audio
ID                                       : 2
Format                                   : AC-3
Format/Info                              : Audio Coding 3
Mode extension                           : CM (complete main)
Format settings, Endianness              : Big
Codec ID                                 : A_AC3
Duration                                 : 1h 25mn
Bit rate mode                            : Constant
Bit rate                                 : 192 Kbps
Channel(s)                               : 2 channels
Channel positions                        : Front: L R
Sampling rate                            : 48.0 KHz
Bit depth                                : 16 bits
Compression mode                         : Lossy
Delay relative to video                  : 17s 500ms
Stream size                              : 117 MiB (2%)
Title                                    : German
Language                                 : German
Default                                  : Yes
Forced                                   : No


Download:
Share Online Share OnlineShare OnlineShare Online
 

Kommentare