HD-AREA wünscht Euch eine besinnliche Weihnachtszeit ;)

DNS SERVER AENDERNum der staatlichen Zensur zu umgehen. Sollten wir von eurem Provider geseprrt werden, nutzt den TOR BROWSER oder ändert euren DNS SERVER.

Filmwünsche können bei uns im Forum abgegeben werden

Wir Speichern Nicht




 
 
 
Top Releases
The.Happy.Prince.2018.German...
The.Happy.Prince.2018.German...
Johnny.English.Man.lebt.nur....
Johnny.English.Man.lebt.nur....
The.Happy.Prince.2018.MULTi....
Von.Loewen.und.Laemmern.2007...
The.Hateful.8.2015.German.AC...
Der.Unsichtbare.Gast.2016.Ge...
BlacKkKlansman.2018.German.A...
Von.Loewen.und.Laemmern.2007...

Cinedubs
Johnny.English.Man.lebt.nur....
Johnny.English.Man.lebt.nur....
Johnny.English.Man.lebt.nur....
Phantastische.Tierwesen.Grin...
Phantastische.Tierwesen.Grin...
The.Guilty.2018.German.AC3D....
The.Guilty.2018.German.AC3D....
Aufbruch.zum.Mond.German.DL....
Aufbruch.zum.Mond.German.DL....
Night.School.2018.GERMAN.DL....

Neuerscheinungen 2017-18
The.Crying.Game.1992.MULTi.C...
Amores.Perros.2000.MULTi.COM...
Ein.Dorf.zieht.blank.German....
Ein.Dorf.zieht.blank.German....
Slender.Man.German.DL.720p.B...
Slender.Man.German.DL.1080p....
Monster.Hunt.2.2018.GERMAN.1...
Monster.Hunt.2.2018.GERMAN.7...
Monster.Hunt.2.2018.GERMAN.D...
The.Howling.1981.MULTI.COMPL...

XXX
LaurenPhillips.17.06.23.Sexy...
MetArtX.18.12.10.Lee.Anne.Li...
KarupsHA.18.12.10.Scarlett.S...
Kemaco.49.XXX.1080p.WEBRip.M...
NHLPCentral.18.12.12.Kiana.K...
JaysPOV.18.12.10.Scarlett.Bl...
MetArtX.18.12.12.Lisa.Dawn.A...
MilfsLikeItBig.18.12.12.Ryan...
KarupsPC.18.12.12.Mary.Monro...
MyFriendsHotMom.18.12.11.Amb...
InTheCrack.E1479.Naomi.Benne...
LadyVoyeurs.18.12.12.Roxee.C...
JulesJordan.18.12.12.Monique...
MomsTeachSex.18.12.12.Christ...
MySistersHotFriend.18.10.12....
LaSublimeXXX.18.03.16.Lady.D...
NewSensations.18.12.10.Luna....
LaurenPhillips.17.06.30.Jay....
MomsLickTeens.18.12.12.Angel...
Ninki.Cosplayer.Mitsurugi.Me...

3D
Meg.3D.2018.MULTi.COMPLETE.B...
Meg.3D.2018.German.DL.1080p....
Gans.im.Glueck.3D.2018.MULTi...
The.Art.of.Flight.3D.2011.Ge...
The.End.Of.The.World.3D.2010...
The.First.Avenger.Civil.War....
Die.Unglaublichen.2.2018.3D....
Skyscraper.3D.2018.MULTi.COM...
Ant-Man.And.The.Wasp.3D.2018...
Ant.Man.and.the.Wasp.3D.2018...
Die.Unglaublichen.2.3D.2018....
Die.Unglaublichen.2.2018.3D....
Die.Unglaublichen.2.2018.3D....
Sharknado.6.The.Last.One.3D....
Deep.Kleine.Helden.der.Tiefs...

Old_Stuff
Akte.X.S05.German.DTS.DL.108...
Akte.X.S04.German.DTS.DL.108...
Akte.X.S03.German.DTS.DL.108...
Dunkirk.1958.COMPLETE.BLURAY...
Das.Wunder.von.Manhattan.199...
The.Amazing.Spiderman.2.Rise...
Rise.of.the.Predator.2014.Ge...
Detective.Dee.und.das.Geheim...
Detective.Dee.Und.Der.Fluch....
Ghost.Rider.Spirit.of.Vengea...
Species.IV.Das.Erwachen.2007...
Species.IV.Das.Erwachen.2007...
Hotel.Transsilvanien.2012.Ge...
The.Dead.2010.German.DL.1080...
The.Dead.2.India.2013.German...

Filme
The.Miracle.Season.Ihr.groes...
Revenge.Sympathy.for.the.Dev...
Song.One.2014.German.AC3D.DL...
Ich.bin.Sam.2001.German.AC3D...
Revolution.1985.German.DL.10...
Johnny.English.Man.lebt.nur....
Die.Bruecke.S04D01-2.MULTi.C...
Ride.Along.Next.Level.Miami....
Percy.Jackson.Im.Bann.des.Zy...
Society.1989.German.DL.1080p...
Prison.Escape.Der.Tunnel.der...
Suits.S07.COMPLETE.German.DL...
Ring.of.Death.2008.German.DL...
Rise.of.the.Black.Bat.2012.G...
Supernatural.S13.COMPLETE.Ge...
Berlin.Station.S03.GERMAN.DL...
Berlin.Station.S03.GERMAN.72...
Straightheads.2007.German.AC...
Wake.Up.and.Die.2011.Uncut.G...
Young.Adam.Dunkle.Leidenscha...
Spaceballs.1987.HDR2SDR.1080...
Bleeder.1999.German.DL.1080p...
Eine.Leiche.zum.Dessert.1976...
Plane.Dead.-.Zombies.on.a.Pl...

 
 
Revenge.Sympathy.for.the.Devil.2010.German.1080p.BluRay.x264-ENCOUNTERS

Jahr: 2010
Genre: Drama, Thriller
Sprache: Deutsch DTS
Laufzeit: 1h 20mn
Bitrate: 9 141 Kbps
Format: MKV
Größe: 5.11 GiB
Release:

Beschreibung:

Großeinsatz für die Polizei in Hongkong: Ein Serienmörder hat es offenbar auf Polizisten und deren Familien abgesehen und schreckt dabei nicht einmal vor Schwangeren zurück. An einer Straßensperre geht der Killer den Cops ins Netz. Es handelt sich um Kit, einen jungen Imbissverkäufer. In den zuweilen handfest geführten Befragungen stellt sich heraus, das Kit eine Rechnung mit der Polizei offen hat: Einst vergewaltigten ein Detective und seine Männer Kits mental gehandicapte Freundin.



Complete name                            : encounters-resyfothde_1080p.mkv
Format                                   : Matroska
Format version                           : Version 2
File size                                : 5.11 GiB
Duration                                 : 1h 20mn
Overall bit rate                         : 9 141 Kbps
Encoded date                             : UTC 2012-06-21 17:04:52
Writing application                      : mkvmerge v5.5.0 ('Healer') built on Apr  6 2012 21:43:24
Writing library                          : libebml v1.2.3 + libmatroska v1.3.0

Video
ID                                       : 1
Format                                   : AVC
Format/Info                              : Advanced Video Codec
Format profile                           : High@L4.1
Format settings, CABAC                   : Yes
Format settings, ReFrames                : 5 frames
Codec ID                                 : V_MPEG4/ISO/AVC
Duration                                 : 1h 20mn
Bit rate                                 : 7 450 Kbps
Width                                    : 1 920 pixels
Height                                   : 816 pixels
Display aspect ratio                     : 2.35:1
Frame rate mode                          : Constant
Frame rate                               : 24.000 fps
Color space                              : YUV
Chroma subsampling                       : 4:2:0
Bit depth                                : 8 bits
Scan type                                : Progressive
Bits/(Pixel*Frame)                       : 0.198
Stream size                              : 4.17 GiB (82%)
Writing library                          : x264 core 125 r2200 999b753
Encoding settings                        : cabac=1 / ref=5 / deblock=1:-1:-1 / analyse=0x3:0x133 / me=umh / subme=7 / psy=1 / psy_rd=1.00:0.15 / mixed_ref=1 / me_range=16 / chroma_me=1 / trellis=1 / 8x8dct=1 / cqm=0 / deadzone=21,11 / fast_pskip=0 / chroma_qp_offset=-3 / threads=9 / lookahead_threads=1 / sliced_threads=0 / nr=0 / decimate=1 / interlaced=0 / bluray_compat=0 / constrained_intra=0 / bframes=3 / b_pyramid=2 / b_adapt=1 / b_bias=0 / direct=1 / weightb=1 / open_gop=0 / weightp=2 / keyint=250 / keyint_min=24 / scenecut=40 / intra_refresh=0 / rc_lookahead=40 / rc=crf / mbtree=1 / crf=20.0 / qcomp=0.60 / qpmin=0 / qpmax=69 / qpstep=4 / ip_ratio=1.40 / aq=1:1.00
Default                                  : Yes
Forced                                   : No

Audio
ID                                       : 2
Format                                   : DTS
Format/Info                              : Digital Theater Systems
Mode                                     : 16
Format settings, Endianness              : Big
Codec ID                                 : A_DTS
Duration                                 : 1h 20mn
Bit rate mode                            : Constant
Bit rate                                 : 1 509 Kbps
Channel(s)                               : 6 channels
Channel positions                        : Front: L C R, Side: L R, LFE
Sampling rate                            : 48.0 KHz
Bit depth                                : 16 bits
Compression mode                         : Lossy
Stream size                              : 864 MiB (17%)
Title                                    : German
Language                                 : German
Default                                  : Yes
Forced                                   : No

Text
ID                                       : 3
Format                                   : UTF-8
Codec ID                                 : S_TEXT/UTF8
Codec ID/Info                            : UTF-8 Plain Text
Title                                    : German Forced
Language                                 : German
Default                                  : Yes
Forced                                   : Yes


Download:
Share Online Share OnlineShare OnlineShare Online
 

Kommentare