HD-AREA wünscht Euch eine besinnliche Weihnachtszeit ;)

DNS SERVER AENDERNum der staatlichen Zensur zu umgehen. Sollten wir von eurem Provider geseprrt werden, nutzt den TOR BROWSER oder ändert euren DNS SERVER.

Filmwünsche können bei uns im Forum abgegeben werden

Wir Speichern Nicht




 
 
 
Top Releases
The.Happy.Prince.2018.MULTi....
Von.Loewen.und.Laemmern.2007...
The.Hateful.8.2015.German.AC...
Der.Unsichtbare.Gast.2016.Ge...
BlacKkKlansman.2018.German.A...
Von.Loewen.und.Laemmern.2007...
Von.Loewen.und.Laemmern.2007...
Von.Loewen.und.Laemmern.2007...
Braven.2018.German.AC3.DL.10...
The.Last.Movie.Star.2017.DUA...

Cinedubs
Johnny.English.Man.lebt.nur....
Johnny.English.Man.lebt.nur....
Johnny.English.Man.lebt.nur....
Phantastische.Tierwesen.Grin...
Phantastische.Tierwesen.Grin...
The.Guilty.2018.German.AC3D....
The.Guilty.2018.German.AC3D....
Aufbruch.zum.Mond.German.DL....
Aufbruch.zum.Mond.German.DL....
Night.School.2018.GERMAN.DL....

Neuerscheinungen 2017-18
Ein.Dorf.zieht.blank.German....
Ein.Dorf.zieht.blank.German....
Slender.Man.German.DL.720p.B...
Slender.Man.German.DL.1080p....
Monster.Hunt.2.2018.GERMAN.1...
Monster.Hunt.2.2018.GERMAN.7...
Monster.Hunt.2.2018.GERMAN.D...
The.Howling.1981.MULTI.COMPL...
Monster.Hunt.2.2018.DUAL.COM...
Slender.Man.2018.MULTi.COMPL...

XXX
LaurenPhillips.17.08.04.Game...
FatManFuck.18.07.01.Lola.Rae...
Lubed.18.12.10.Kiara.Cole.Te...
LaurenPhillips.17.09.01.Devo...
HardX.18.12.11.Jane.Wilde.Dr...
HollyRandall.18.12.11.Nicole...
ManuelFerrara.18.12.10.Kayla...
FatManFuck.18.09.23.Dolly.XX...
LoneMilf.18.12.10.Summer.Har...
HotLegsAndFeet.18.12.11.Barb...
FatManFuck.18.09.02.Skyler.S...
Horror.Shop.Vol.2.XXX.1080p....
LaurenPhillips.17.07.21.Play...
LetsTryAnal.18.12.11.Emily.W...
LaurenPhillips.17.08.25.Let....
Hustler.18.12.09.Britney.Amb...
FatManFuck.18.06.30.Little.T...
HornyDoctor.18.12.10.Karol.L...
FatManFuck.18.06.24.Lauren.C...
HeavyOnHotties.18.12.11.Frai...

3D
Meg.3D.2018.MULTi.COMPLETE.B...
Meg.3D.2018.German.DL.1080p....
Gans.im.Glueck.3D.2018.MULTi...
The.Art.of.Flight.3D.2011.Ge...
The.End.Of.The.World.3D.2010...
The.First.Avenger.Civil.War....
Die.Unglaublichen.2.2018.3D....
Skyscraper.3D.2018.MULTi.COM...
Ant-Man.And.The.Wasp.3D.2018...
Ant.Man.and.the.Wasp.3D.2018...
Die.Unglaublichen.2.3D.2018....
Die.Unglaublichen.2.2018.3D....
Die.Unglaublichen.2.2018.3D....
Sharknado.6.The.Last.One.3D....
Deep.Kleine.Helden.der.Tiefs...

Old_Stuff
Akte.X.S05.German.DTS.DL.108...
Akte.X.S04.German.DTS.DL.108...
Akte.X.S03.German.DTS.DL.108...
Dunkirk.1958.COMPLETE.BLURAY...
Das.Wunder.von.Manhattan.199...
The.Amazing.Spiderman.2.Rise...
Rise.of.the.Predator.2014.Ge...
Detective.Dee.und.das.Geheim...
Detective.Dee.Und.Der.Fluch....
Ghost.Rider.Spirit.of.Vengea...
Species.IV.Das.Erwachen.2007...
Species.IV.Das.Erwachen.2007...
Hotel.Transsilvanien.2012.Ge...
The.Dead.2010.German.DL.1080...
The.Dead.2.India.2013.German...

Filme
Ring.of.Death.2008.German.DL...
Rise.of.the.Black.Bat.2012.G...
Supernatural.S13.COMPLETE.Ge...
Berlin.Station.S03.GERMAN.DL...
Berlin.Station.S03.GERMAN.72...
Straightheads.2007.German.AC...
Wake.Up.and.Die.2011.Uncut.G...
Young.Adam.Dunkle.Leidenscha...
Spaceballs.1987.HDR2SDR.1080...
Bleeder.1999.German.DL.1080p...
Eine.Leiche.zum.Dessert.1976...
Plane.Dead.-.Zombies.on.a.Pl...
Die.Nackten.und.die.Toten.19...
Das.Schlafzimmerfenster.aka....
So.wie.wir.waren.1973.German...
Schindlers.Liste.1993.German...
Jesse.James.Mann.ohne.Gesetz...
Modern.Family.S09.GERMAN.DUB...
Modern.Family.S09.GERMAN.DUB...
MADIBA.S01D01-2.MULTi.COMPLE...
Suits.S07.COMPLETE.German.DL...
Summer.Shark.Attack.2016.Ger...
Fail.State.2017.1080p.WEB.H2...
Sugarhouse.2007.German.DL.10...

 
 
Ein.Dorf.zieht.blank.German.720p.BluRay.x264-EmpireHD

Jahr: 2018
Genre: Drama, Komödie
Sprache: Deutsch DTS
Laufzeit: 1h 50mn
Bitrate: 4 387 Kbps
Format: MKV
Größe: 3.37 GiB
Release:

Beschreibung:

Bürgermeister Georges Balbuzard ist mit seinem Latein am Ende. Die Landwirtschaftskrise hat auch die Bauern in seinem beschaulichen Dorf Mêle-sur-Sarthe in der Normandie erreicht. Doch ihre zahlreichen Proteste erwecken weder das Interesse der Verantwortlichen in Rouen noch in Paris. Also beschließt Balbuzard die Sache selbst in die Hand zu nehmen. Er weiß nur noch nicht so recht wie. Als zufällig der berühmte Fotokünstler Blake Newman nach Mêle-sur-Sarthe kommt, scheinen alle Probleme gelöst und die nötige Aufmerksamkeit garantiert. Denn Newman möchte ausgerechnet hier sein neues spektakuläres Fotoprojekt realisieren und sogar die Bauern miteinbeziehen. Wäre da nicht noch eine Kleinigkeit, von der Bürgermeister Balbuzard noch alle überzeugen muss: Die Bauern sollen sich für das Foto ausziehen!



Complete name                            : empire-edzb-720p.mkv
Format                                   : Matroska
Format version                           : Version 2
File size                                : 3.37 GiB
Duration                                 : 1h 50mn
Overall bit rate                         : 4 387 Kbps
Writing application                      : mkvmerge v4.1.1 ('Bouncin' Back') built on Jul  3 2010 22:54:08
Writing library                          : libebml v1.0.0 + libmatroska v1.0

Video
ID                                       : 1
Format                                   : AVC
Format/Info                              : Advanced Video Codec
Format profile                           : High@L4.1
Format settings, CABAC                   : Yes
Format settings, ReFrames                : 5 frames
Codec ID                                 : V_MPEG4/ISO/AVC
Duration                                 : 1h 50mn
Bit rate                                 : 2 790 Kbps
Width                                    : 1 280 pixels
Height                                   : 688 pixels
Display aspect ratio                     : 1.85:1
Frame rate mode                          : Constant
Frame rate                               : 24.000 fps
Color space                              : YUV
Chroma subsampling                       : 4:2:0
Bit depth                                : 8 bits
Scan type                                : Progressive
Bits/(Pixel*Frame)                       : 0.132
Stream size                              : 2.14 GiB (64%)
Writing library                          : x264 core 157 r2935 545de2f
Encoding settings                        : cabac=1 / ref=5 / deblock=1:-3:-3 / analyse=0x3:0x133 / me=umh / subme=8 / psy=1 / psy_rd=1.00:0.15 / mixed_ref=1 / me_range=16 / chroma_me=1 / trellis=1 / 8x8dct=1 / cqm=0 / deadzone=21,11 / fast_pskip=0 / chroma_qp_offset=-3 / threads=16 / lookahead_threads=2 / sliced_threads=0 / nr=0 / decimate=1 / interlaced=0 / bluray_compat=0 / constrained_intra=0 / bframes=3 / b_pyramid=2 / b_adapt=1 / b_bias=0 / direct=3 / weightb=1 / open_gop=0 / weightp=2 / keyint=240 / keyint_min=24 / scenecut=40 / intra_refresh=0 / rc_lookahead=40 / rc=crf / mbtree=1 / crf=20.0 / qcomp=0.60 / qpmin=10 / qpmax=69 / qpstep=4 / ip_ratio=1.40 / aq=1:1.00
Language                                 : English
Default                                  : Yes
Forced                                   : No

Audio
ID                                       : 2
Format                                   : DTS
Format/Info                              : Digital Theater Systems
Mode                                     : 16
Format settings, Endianness              : Big
Codec ID                                 : A_DTS
Duration                                 : 1h 50mn
Bit rate mode                            : Constant
Bit rate                                 : 1 509 Kbps
Channel(s)                               : 6 channels
Channel positions                        : Front: L C R, Side: L R, LFE
Sampling rate                            : 48.0 KHz
Bit depth                                : 16 bits
Compression mode                         : Lossy
Stream size                              : 1.16 GiB (34%)
Language                                 : German
Default                                  : Yes
Forced                                   : No

Text
ID                                       : 3
Format                                   : UTF-8
Codec ID                                 : S_TEXT/UTF8
Codec ID/Info                            : UTF-8 Plain Text
Language                                 : German
Default                                  : Yes
Forced                                   : Yes


Download:
Share Online Share OnlineShare OnlineShare Online
 

Kommentare