HD-AREA wünscht Euch eine besinnliche Weihnachtszeit ;)

DNS SERVER AENDERNum der staatlichen Zensur zu umgehen. Sollten wir von eurem Provider geseprrt werden, nutzt den TOR BROWSER oder ändert euren DNS SERVER.

Filmwünsche können bei uns im Forum abgegeben werden

Wir Speichern Nicht




 
 
 
Top Releases
Johnny.English.Man.lebt.nur....
Johnny.English.Man.lebt.nur....
The.Happy.Prince.2018.MULTi....
Von.Loewen.und.Laemmern.2007...
The.Hateful.8.2015.German.AC...
Der.Unsichtbare.Gast.2016.Ge...
BlacKkKlansman.2018.German.A...
Von.Loewen.und.Laemmern.2007...
Von.Loewen.und.Laemmern.2007...
Von.Loewen.und.Laemmern.2007...

Cinedubs
Johnny.English.Man.lebt.nur....
Johnny.English.Man.lebt.nur....
Johnny.English.Man.lebt.nur....
Phantastische.Tierwesen.Grin...
Phantastische.Tierwesen.Grin...
The.Guilty.2018.German.AC3D....
The.Guilty.2018.German.AC3D....
Aufbruch.zum.Mond.German.DL....
Aufbruch.zum.Mond.German.DL....
Night.School.2018.GERMAN.DL....

Neuerscheinungen 2017-18
Ein.Dorf.zieht.blank.German....
Ein.Dorf.zieht.blank.German....
Slender.Man.German.DL.720p.B...
Slender.Man.German.DL.1080p....
Monster.Hunt.2.2018.GERMAN.1...
Monster.Hunt.2.2018.GERMAN.7...
Monster.Hunt.2.2018.GERMAN.D...
The.Howling.1981.MULTI.COMPL...
Monster.Hunt.2.2018.DUAL.COM...
Slender.Man.2018.MULTi.COMPL...

XXX
LaurenPhillips.17.08.04.Game...
FatManFuck.18.07.01.Lola.Rae...
Lubed.18.12.10.Kiara.Cole.Te...
LaurenPhillips.17.09.01.Devo...
HardX.18.12.11.Jane.Wilde.Dr...
HollyRandall.18.12.11.Nicole...
ManuelFerrara.18.12.10.Kayla...
FatManFuck.18.09.23.Dolly.XX...
LoneMilf.18.12.10.Summer.Har...
HotLegsAndFeet.18.12.11.Barb...
FatManFuck.18.09.02.Skyler.S...
Horror.Shop.Vol.2.XXX.1080p....
LaurenPhillips.17.07.21.Play...
LetsTryAnal.18.12.11.Emily.W...
LaurenPhillips.17.08.25.Let....
Hustler.18.12.09.Britney.Amb...
FatManFuck.18.06.30.Little.T...
HornyDoctor.18.12.10.Karol.L...
FatManFuck.18.06.24.Lauren.C...
HeavyOnHotties.18.12.11.Frai...

3D
Meg.3D.2018.MULTi.COMPLETE.B...
Meg.3D.2018.German.DL.1080p....
Gans.im.Glueck.3D.2018.MULTi...
The.Art.of.Flight.3D.2011.Ge...
The.End.Of.The.World.3D.2010...
The.First.Avenger.Civil.War....
Die.Unglaublichen.2.2018.3D....
Skyscraper.3D.2018.MULTi.COM...
Ant-Man.And.The.Wasp.3D.2018...
Ant.Man.and.the.Wasp.3D.2018...
Die.Unglaublichen.2.3D.2018....
Die.Unglaublichen.2.2018.3D....
Die.Unglaublichen.2.2018.3D....
Sharknado.6.The.Last.One.3D....
Deep.Kleine.Helden.der.Tiefs...

Old_Stuff
Akte.X.S05.German.DTS.DL.108...
Akte.X.S04.German.DTS.DL.108...
Akte.X.S03.German.DTS.DL.108...
Dunkirk.1958.COMPLETE.BLURAY...
Das.Wunder.von.Manhattan.199...
The.Amazing.Spiderman.2.Rise...
Rise.of.the.Predator.2014.Ge...
Detective.Dee.und.das.Geheim...
Detective.Dee.Und.Der.Fluch....
Ghost.Rider.Spirit.of.Vengea...
Species.IV.Das.Erwachen.2007...
Species.IV.Das.Erwachen.2007...
Hotel.Transsilvanien.2012.Ge...
The.Dead.2010.German.DL.1080...
The.Dead.2.India.2013.German...

Filme
Ride.Along.Next.Level.Miami....
Percy.Jackson.Im.Bann.des.Zy...
Ohne.Ausweg.1993.German.DL.1...
Society.1989.German.DL.1080p...
The.Happy.Prince.2018.German...
Prison.Escape.Der.Tunnel.der...
Suits.S07.COMPLETE.German.DL...
Ring.of.Death.2008.German.DL...
Rise.of.the.Black.Bat.2012.G...
Supernatural.S13.COMPLETE.Ge...
Berlin.Station.S03.GERMAN.DL...
Berlin.Station.S03.GERMAN.72...
Straightheads.2007.German.AC...
Wake.Up.and.Die.2011.Uncut.G...
Young.Adam.Dunkle.Leidenscha...
Spaceballs.1987.HDR2SDR.1080...
Bleeder.1999.German.DL.1080p...
Eine.Leiche.zum.Dessert.1976...
Plane.Dead.-.Zombies.on.a.Pl...
Die.Nackten.und.die.Toten.19...
Das.Schlafzimmerfenster.aka....
So.wie.wir.waren.1973.German...
Schindlers.Liste.1993.German...
Jesse.James.Mann.ohne.Gesetz...

 
 
Ride.Along.Next.Level.Miami.2016.German.DL.1080p.BluRay.x264-XANOR

Jahr: 2016
Genre: Action, Komödie
Sprache: Deutsch DTS | Englisch DTS
Laufzeit: 1h 41mn
Bitrate: 6 538 Kbps
Format: MKV
Größe: 4.64 GiB
Release:

Beschreibung:

Der Cop James Payton und der Ex-Wachmann Ben Barber sind als Ermittler-Duo zurück. Ihre Beziehung wurde zunächst auf eine harte Probe gestellt. Als Ben um die Hand von James’ Schwester Angela anhielt, musste dieser den potentiellen Familienzuwachs erst auf Herz und Nieren prüfen. Nun, nachdem ein turbulentes Abenteuer die ungleichen Gesetzeshüter halbwegs zusammengeschweißt hat, müssen die beiden, mit der nahenden Hochzeit von Ben und Angela im Hinterkopf, einen weiteren heiklen Fall lösen. Die Aufgabe führt James und den frischgebackenen Polizisten Ben nach Miami. Dort sollen sie einen berüchtigten Drogenring zu Fall bringen.



Complete name                            : xan-ride.along.2.1080.mkv
Format                                   : Matroska
Format version                           : Version 4 / Version 2
File size                                : 4.64 GiB
Duration                                 : 1h 41mn
Overall bit rate                         : 6 538 Kbps
Encoded date                             : UTC 2016-05-23 20:11:40
Writing application                      : mkvmerge v7.9.0 ('Birds') 64bit
Writing library                          : libebml v1.3.1 + libmatroska v1.4.2
DURATION                                 : 01:40:01.412000000
NUMBER_OF_FRAMES                         : 14
NUMBER_OF_BYTES                          : 447
_STATISTICS_WRITING_APP                  : mkvmerge v7.9.0 ('Birds') 64bit
_STATISTICS_WRITING_DATE_UTC             : 2016-05-23 20:11:40
_STATISTICS_TAGS                         : BPS DURATION NUMBER_OF_FRAMES NUMBER_OF_BYTES

Video
ID                                       : 1
Format                                   : AVC
Format/Info                              : Advanced Video Codec
Format profile                           : High@L4.1
Format settings, CABAC                   : Yes
Format settings, ReFrames                : 5 frames
Codec ID                                 : V_MPEG4/ISO/AVC
Duration                                 : 1h 41mn
Bit rate                                 : 4 131 Kbps
Width                                    : 1 920 pixels
Height                                   : 800 pixels
Display aspect ratio                     : 2.40:1
Frame rate mode                          : Constant
Frame rate                               : 23.976 fps
Color space                              : YUV
Chroma subsampling                       : 4:2:0
Bit depth                                : 8 bits
Scan type                                : Progressive
Bits/(Pixel*Frame)                       : 0.112
Stream size                              : 2.93 GiB (63%)
Writing library                          : x264 core 148 r2692 64f4e24
Encoding settings                        : cabac=1 / ref=5 / deblock=1:-2:-2 / analyse=0x3:0x133 / me=umh / subme=7 / psy=1 / psy_rd=1.00:0.00 / mixed_ref=1 / me_range=16 / chroma_me=1 / trellis=1 / 8x8dct=1 / cqm=0 / deadzone=21,11 / fast_pskip=0 / chroma_qp_offset=-2 / threads=18 / lookahead_threads=3 / sliced_threads=0 / nr=0 / decimate=1 / interlaced=0 / bluray_compat=0 / constrained_intra=0 / bframes=3 / b_pyramid=2 / b_adapt=1 / b_bias=0 / direct=3 / weightb=1 / open_gop=0 / weightp=2 / keyint=240 / keyint_min=23 / scenecut=40 / intra_refresh=0 / rc_lookahead=50 / rc=crf / mbtree=1 / crf=20.0 / qcomp=0.60 / qpmin=10 / qpmax=51 / qpstep=4 / ip_ratio=1.40 / aq=1:1.00
Language                                 : English
Default                                  : Yes
Forced                                   : No
DURATION                                 : 01:41:30.001000000
NUMBER_OF_FRAMES                         : 146014
NUMBER_OF_BYTES                          : 3241473587
_STATISTICS_WRITING_APP                  : mkvmerge v7.9.0 ('Birds') 64bit
_STATISTICS_WRITING_DATE_UTC             : 2016-05-23 20:11:40
_STATISTICS_TAGS                         : BPS DURATION NUMBER_OF_FRAMES NUMBER_OF_BYTES

Audio #1
ID                                       : 2
Format                                   : DTS
Format/Info                              : Digital Theater Systems
Mode                                     : 16
Format settings, Endianness              : Big
Codec ID                                 : A_DTS
Duration                                 : 1h 41mn
Bit rate mode                            : Constant
Bit rate                                 : 768 Kbps
Channel(s)                               : 6 channels
Channel positions                        : Front: L C R, Side: L R, LFE
Sampling rate                            : 48.0 KHz
Bit depth                                : 24 bits
Compression mode                         : Lossy
Stream size                              : 558 MiB (12%)
Language                                 : German
Default                                  : Yes
Forced                                   : No

Audio #2
ID                                       : 3
Format                                   : DTS
Format/Info                              : Digital Theater Systems
Mode                                     : 16
Format settings, Endianness              : Big
Codec ID                                 : A_DTS
Duration                                 : 1h 41mn
Bit rate mode                            : Constant
Bit rate                                 : 1 509 Kbps
Channel(s)                               : 6 channels
Channel positions                        : Front: L C R, Side: L R, LFE
Sampling rate                            : 48.0 KHz
Bit depth                                : 24 bits
Compression mode                         : Lossy
Stream size                              : 1.07 GiB (23%)
Language                                 : English
Default                                  : No
Forced                                   : No

Text
ID                                       : 4
Format                                   : UTF-8
Codec ID                                 : S_TEXT/UTF8
Codec ID/Info                            : UTF-8 Plain Text
Language                                 : German
Default                                  : Yes
Forced                                   : Yes


Download:
Share Online Share OnlineShare OnlineShare Online
 

Kommentare