DNS SERVER AENDERNum der staatlichen Zensur zu umgehen. Sollten wir von eurem Provider geseprrt werden, nutzt den TOR BROWSER oder ändert euren DNS SERVER.

Filmwünsche können bei uns im Forum abgegeben werden

Wir Speichern Nicht




 
 
 
Top Releases
The.Christmas.Chronicles.201...
Dieses.bescheuerte.Herz.2017...
Gold.Gier.hat.eine.neue.Farb...
Charlie.Countryman.2013.Germ...
Halloween.German.DL.AC3.Dubb...
Halloween.German.DL.AC3.Dubb...
Zuhause.ist.es.am.schoensten...
I.Kill.Giants.2017.German.10...
Spotlight.2015.German.AC3.DL...
A.Million.Ways.to.Die.in.the...

Cinedubs
Gaensehaut.2.Gruseliges.Hall...
Aquaman.TS.LD.German.DL.720p...
Eho.Echo.German.720p.WEBRip....
Eho.Echo.German.1080p.WEBRip...
Bad.Times.at.the.El.Royale.2...
Bad.Spies.2018.German.DL.AC3...
Aquaman.2018.GERMAN.AC3.MD.7...
Bad.Spies.German.DL.AC3.Dubb...
Bad.Spies.German.DL.AC3.Dubb...
Bad.Times.at.the.El.Royale.G...

Neuerscheinungen 2018-19
Robin.Hood.Der.Rebell.2018.G...
Shaitan.2011.German.1080p.HD...
Von.Herren.und.Dienern.2015....
Maniac.1980.REMASTERED.COMPL...
Colditz.2005.German.DL.1080p...
Cry.Wolf.2005.German.DL.1080...
Colditz.2005.German.DL.1080p...
Colditz.2005.German.720p.Blu...
Death.Kiss.UNCUT.2018.German...
Death.Kiss.UNCUT.2018.DUAL.C...

XXX
EvilAngel.Artcore.Anal.XXX.1...
EvilAngel.Artcore.Anal.XXX.7...
FakehubOriginals.18.12.25.Bl...
GrandpasFuckTeens.18.12.25.Y...
FakeTaxi.18.12.26.Louise.Lee...
GotMylf.18.12.27.Mia.Lelani....
HotAndMean.18.12.28.Alina.Lo...
FamilyStrokes.18.12.27.Arian...
HardX.18.12.28.Ivy.Lebelle.M...
GirlsOutWest.18.12.25.Rubi.V...
ATKGirlfriends.18.12.26.Alex...
GapeLand.18.12.26.Katy.Rose....
FTVMilfs.18.12.25.Candice.Da...
GirlsGonePink.18.12.27.Aspen...
HotLegsAndFeet.18.12.25.Mia....
Fitting-Room.18.12.24.Red.Fo...
GiveMePink.18.12.25.Mary.Kal...
GirlsOutWest.18.12.26.Lizzie...
HardX.18.12.25.Eliza.Ibarra....
Hustler.18.12.20.Jennifer.Wh...

3D
Bis.an.die.Grenzen.des.Unive...
Best.of.3D.vol.13.-.15.GERMA...
Limbradur.und.die.Magie.der....
Kaluoka.Hina.Das.Zauberriff....
Limbradur.und.die.Magie.der....
Smallfoot.3D.2018.COMPLETE.B...
Smallfoot.Ein.eisigartiges.A...
Skyscraper.3D.2018.German.DL...
Meg.3D.2018.MULTi.COMPLETE.B...
Meg.3D.2018.German.DL.1080p....
Gans.im.Glueck.3D.2018.MULTi...
The.Art.of.Flight.3D.2011.Ge...
The.End.Of.The.World.3D.2010...
The.First.Avenger.Civil.War....
Die.Unglaublichen.2.2018.3D....

Old_Stuff
ZZ.Top.Live.from.Texas.2008....
Peter.Hase.2018.German.DL.10...
Akte.X.S05.German.DTS.DL.108...
Akte.X.S04.German.DTS.DL.108...
Akte.X.S03.German.DTS.DL.108...
Dunkirk.1958.COMPLETE.BLURAY...
Das.Wunder.von.Manhattan.199...
The.Amazing.Spiderman.2.Rise...
Rise.of.the.Predator.2014.Ge...
Detective.Dee.und.das.Geheim...
Detective.Dee.Und.Der.Fluch....
Ghost.Rider.Spirit.of.Vengea...
Species.IV.Das.Erwachen.2007...
Species.IV.Das.Erwachen.2007...
Hotel.Transsilvanien.2012.Ge...

Filme
Geheimnisvolle.Orte.Oberhof....
1612.Der.blutige.Kampf.um.da...
Bank.Job.2008.German.AC3.DL....
Payback.-.Zahltag.1999.DiREC...
Alpha.Dog.-.Toedliche.Freund...
So.tickt.China.E03.Das.schne...
So.tickt.China.E01.Anpassen....
Das.geheime.Fenster.2004.Ger...
Exiled.German.AC3D.2006.1080...
Terra.X.Expedition.Europa.-....
Shark.Attack.Sie.lauern.in.d...
Birth.2004.German.AC3D.DL.10...
Kinderfotos.im.Netz.gepostet...
Ruhe.Sanft.GmbH.1963.German....
Small.World.2010.German.DL.1...
Shoot.em.Down.2010.German.10...
Jacky.im.Koenigreich.der.Fra...
What.They.Had.2018.1080p.WEB...
Battlestar.Galactica.Blood.a...
Gesetz.der.Rache.2009.German...
El.Camino.Christmas.2017.Ger...
Batman.und.Mr.Freeze.Eiszeit...
Zeugenschutzprogramm.1999.Ge...
F.B.I.Academy.1988.German.AC...

 
 
Geheimnisvolle.Orte.Oberhof.GERMAN.DOKU.720p.HDTV.x264-TMSF

Genre: Dokumentation
Sprache: Deutsch AC3
Laufzeit: 44mn 59s
Bitrate: 3 403 Kbps
Format: MKV
Größe: 1.07 GiB
Release:

Beschreibung:

Oberhof, am Kamm des Thüringer Waldes. Unweit vom Rennsteig ist er heute nach Erfurt und Weimar der meistbesuchte Ort in Thüringen. Und schon immer war Oberhof beliebtes Ziel von Bergfreunden, Wanderern und Wintersportlern. Ein englischsprachiger Prospekt vermeldete schon in den 1920ern: “The most inexpensive luxury in Europe today …” Damals ein gemütlicher Ort auf dem vielleicht schönsten Hochplateau Mitteldeutschlands, ein heilklimatischer Luftkurort mit Höhensonne.



Complete name                            : tmsf-geheimnisvolleorteoberhof-720p.mkv
Format                                   : Matroska
Format version                           : Version 4 / Version 2
File size                                : 1.07 GiB
Duration                                 : 44mn 59s
Overall bit rate                         : 3 403 Kbps
Writing application                      : Lavf57.49.100
Writing library                          : Lavf57.49.100

Video
ID                                       : 1
Format                                   : AVC
Format/Info                              : Advanced Video Codec
Format profile                           : High@L4.1
Format settings, CABAC                   : Yes
Format settings, ReFrames                : 5 frames
Codec ID                                 : V_MPEG4/ISO/AVC
Duration                                 : 44mn 59s
Bit rate                                 : 2 951 Kbps
Width                                    : 1 280 pixels
Height                                   : 720 pixels
Display aspect ratio                     : 16:9
Frame rate mode                          : Constant
Frame rate                               : 25.000 fps
Color space                              : YUV
Chroma subsampling                       : 4:2:0
Bit depth                                : 8 bits
Scan type                                : Progressive
Bits/(Pixel*Frame)                       : 0.128
Stream size                              : 950 MiB (87%)
Writing library                          : x264 core 148 r2705 3f5ed56
Encoding settings                        : cabac=1 / ref=5 / deblock=1:-3:-3 / analyse=0x3:0x113 / me=umh / subme=7 / psy=1 / psy_rd=1.00:0.00 / mixed_ref=1 / me_range=16 / chroma_me=1 / trellis=1 / 8x8dct=1 / cqm=0 / deadzone=21,11 / fast_pskip=0 / chroma_qp_offset=-2 / threads=12 / lookahead_threads=2 / sliced_threads=0 / nr=0 / decimate=1 / interlaced=0 / bluray_compat=0 / constrained_intra=0 / bframes=3 / b_pyramid=2 / b_adapt=1 / b_bias=0 / direct=1 / weightb=1 / open_gop=0 / weightp=2 / keyint=250 / keyint_min=25 / scenecut=40 / intra_refresh=0 / rc_lookahead=40 / rc=crf / mbtree=1 / crf=19.0 / qcomp=0.60 / qpmin=0 / qpmax=69 / qpstep=4 / ip_ratio=1.40 / aq=1:1.00
Default                                  : Yes
Forced                                   : No
Color primaries                          : BT.709
Transfer characteristics                 : BT.709
Matrix coefficients                      : BT.709
DURATION                                 : 00:44:59.920000000

Audio
ID                                       : 2
Format                                   : AC-3
Format/Info                              : Audio Coding 3
Mode extension                           : CM (complete main)
Format settings, Endianness              : Big
Codec ID                                 : A_AC3
Duration                                 : 44mn 59s
Bit rate mode                            : Constant
Bit rate                                 : 384 Kbps
Channel(s)                               : 2 channels
Channel positions                        : Front: L R
Sampling rate                            : 48.0 KHz
Bit depth                                : 16 bits
Compression mode                         : Lossy
Delay relative to video                  : 120ms
Stream size                              : 124 MiB (11%)
Writing library                          : Lavc57.55.101 ac3
Language                                 : German
Default                                  : Yes
Forced                                   : No
DURATION                                 : 00:44:59.896000000


Download:
Share-Online Share-OnlineShare-OnlineShare-Online
 

Kommentare