DNS SERVER AENDERNum der staatlichen Zensur zu umgehen. Sollten wir von eurem Provider geseprrt werden, nutzt den TOR BROWSER oder ändert euren DNS SERVER.

Filmwünsche können bei uns im Forum abgegeben werden

Wir Speichern Nicht




 
 
 
Top Releases
Upgrade.German.DL.AC3.Dubbed...
Upgrade.German.DL.AC3.Dubbed...
The.Guilty.2018.German.720p....
The.Guilty.2018.German.1080p...
The.Guilty.2018.MULTi.COMPLE...
Padmaavat.Ein.Koenigreich.fu...
Padmaavat.Ein.Koenigreich.fu...
Padmaavat.Ein.Koenigreich.fu...
Padmaavat.Ein.Koenigreich.fu...
The.Christmas.Chronicles.201...

Cinedubs
Gaensehaut.2.Gruseliges.Hall...
Aquaman.TS.LD.German.DL.720p...
Eho.Echo.German.720p.WEBRip....
Eho.Echo.German.1080p.WEBRip...
Bad.Times.at.the.El.Royale.2...
Bad.Spies.2018.German.DL.AC3...
Aquaman.2018.GERMAN.AC3.MD.7...
Bad.Spies.German.DL.AC3.Dubb...
Bad.Spies.German.DL.AC3.Dubb...
Bad.Times.at.the.El.Royale.G...

Neuerscheinungen 2018-19
Dieter.der.Film.2006.German....
Godzilla.The.Planet.Eater.20...
Godzilla.The.Planet.Eater.20...
Do.the.Right.Thing.1989.Germ...
Welcome.Home.2018.German.DL....
Welcome.Home.2018.German.720...
Der.Fluch.des.schwarzen.Rubi...
Welcome.Home.2018.MULTi.COMP...
Maniac.REMASTERED.GERMAN.198...
American.Violet.2008.German....

XXX
MyLifeInMiami.18.12.05.Vina....
Lustery.E157.Maya.And.Edward...
NinaKayy.17.05.12.Foot.Teasi...
NataliaStarr.18.03.09.Sexy.W...
NataliaStarr.18.03.09.Heatin...
NataliaStarr.18.03.09.Cummin...
NHLPCentral.18.12.26.April.P...
NinaKayy.17.05.06.Foot.Domin...
MomXXX.18.12.27.Kiki.Minaj.X...
MyLifeInMiami.18.12.21.Kitty...
MommyBlowsBest.18.12.26.Lexi...
NinaKayy.17.05.09.Sexting.Yo...
MyLifeInMiami.18.11.30.Brook...
NataliaStarr.18.03.09.Riding...
MyLifeInMiami.18.12.21.Megan...
MassageRooms.18.12.26.Angel....
MomsBangTeens.18.12.25.Cory....
NHLPCentral.18.12.20.Tindra....
NinaKayy.17.05.14.Betty.Bang...
NinaKayy.17.05.01.Netflix.Ch...

3D
Bis.an.die.Grenzen.des.Unive...
Best.of.3D.vol.13.-.15.GERMA...
Limbradur.und.die.Magie.der....
Kaluoka.Hina.Das.Zauberriff....
Limbradur.und.die.Magie.der....
Smallfoot.3D.2018.COMPLETE.B...
Smallfoot.Ein.eisigartiges.A...
Skyscraper.3D.2018.German.DL...
Meg.3D.2018.MULTi.COMPLETE.B...
Meg.3D.2018.German.DL.1080p....
Gans.im.Glueck.3D.2018.MULTi...
The.Art.of.Flight.3D.2011.Ge...
The.End.Of.The.World.3D.2010...
The.First.Avenger.Civil.War....
Die.Unglaublichen.2.2018.3D....

Old_Stuff
Animatrix.2003.German.DL.108...
Animatrix.2003.German.DL.720...
Akte.X.S06.German.DTS.DL.108...
The.Beauty.of.Gemina.Minor.S...
ZZ.Top.Live.from.Texas.2008....
Peter.Hase.2018.German.DL.10...
Akte.X.S05.German.DTS.DL.108...
Akte.X.S04.German.DTS.DL.108...
Akte.X.S03.German.DTS.DL.108...
Dunkirk.1958.COMPLETE.BLURAY...
Das.Wunder.von.Manhattan.199...
The.Amazing.Spiderman.2.Rise...
Rise.of.the.Predator.2014.Ge...
Detective.Dee.und.das.Geheim...
Detective.Dee.Und.Der.Fluch....

Filme
Der.Neandertaler.in.uns.E01....
Der.Neandertaler.in.uns.E01....
Werner.Beinhart.1990.German....
Werner.Beinhart.1990.German....
Dieter.der.Film.2006.German....
Do.the.Right.Thing.1989.Germ...
Wynonna.Earp.S01D01-2.MULTi....
Der.Campus.1998.German.1080p...
Mountain.2017.DOKU.German.DL...
Ein.Wunder.S01.GERMAN.DL.AC3...
When.Heroes.Fly.S01.COMPLETE...
Enemmy.-.Auf.den.Spuren.des....
Sex.Education.S01.COMPLETE.G...
When.Heroes.Fly.S01.COMPLETE...
Titans.S01.COMPLETE.GERMAN.D...
Hi.Mom.1970.German.AC3D.DL.7...
Nobody.2007.German.DL.1080p....
Goldene.Zeiten.2006.German.1...
Venus.and.Vegas.2010.German....
Gunpowder.S01.MULTi.COMPLETE...
Night.School.2018.THEATRICAL...
Night.School.EXTENDED.German...
The.Romanoffs.S01.COMPLETE.G...
The.Romanoffs.S01.COMPLETE.G...

 
 
Do.the.Right.Thing.1989.German.DL.1080p.BluRay.x264-CHECKMATE

Jahr: 1989
Genre: Komödie
Sprache: Deutsch DTS | Englisch DTS
Laufzeit: 1h 59mn
Bitrate: 11.8 Mbps
Format: MKV
Größe: 9.84 GiB
Release:

Beschreibung:

Während im Sommer in Brooklyn die Temperaturen hochklettern, erhitzen sich die Gemüter. Der Italiener Sal versorgt das Viertel schon seit 20 Jahren mit Pizza und will die Zeichen der Zeit nicht verstehen. Weder sein schwarzer Pizzaboy Mookie, noch seine beiden genervten Söhne Vito und Pino haben große Lust zum Arbeiten. Mookie verschwindet lieber zur Freundin, und Pino zeigt rassistische Gefühle für die schwarze Nachbarschaft. Als am Abend Radio Raheem mit seinem seiner aggressiven Rapmusik in der Pizzeria auftaucht, kommt es zur Konfrontation. Im Gemenge wird der Schwarze von Cops getötet, nach den resultierenden Rassenunruhen bleibt von Sals Pizzeria nur ein Trümmerhaufen.



Complete name                            : checkmate-dtrt.1080p.mkv
Format                                   : Matroska
Format version                           : Version 4 / Version 2
File size                                : 9.84 GiB
Duration                                 : 1h 59mn
Overall bit rate                         : 11.8 Mbps
Encoded date                             : UTC 2019-01-09 16:17:11
Writing application                      : mkvmerge v28.2.0 ('The Awakening') 64-bit
Writing library                          : libebml v1.3.6 + libmatroska v1.4.9
DURATION                                 : 01:59:53.792000000
NUMBER_OF_FRAMES                         : 674418
NUMBER_OF_BYTES                          : 1356929016
_STATISTICS_WRITING_APP                  : mkvmerge v28.2.0 ('The Awakening') 64-bit
_STATISTICS_WRITING_DATE_UTC             : 2019-01-09 16:17:11
_STATISTICS_TAGS                         : BPS DURATION NUMBER_OF_FRAMES NUMBER_OF_BYTES

Video
ID                                       : 1
Format                                   : AVC
Format/Info                              : Advanced Video Codec
Format profile                           : High@L4.1
Format settings, CABAC                   : Yes
Format settings, ReFrames                : 4 frames
Codec ID                                 : V_MPEG4/ISO/AVC
Duration                                 : 1h 59mn
Bit rate                                 : 8 737 Kbps
Width                                    : 1 920 pixels
Height                                   : 1 040 pixels
Display aspect ratio                     : 1.85:1
Frame rate mode                          : Constant
Frame rate                               : 23.976 fps
Color space                              : YUV
Chroma subsampling                       : 4:2:0
Bit depth                                : 8 bits
Scan type                                : Progressive
Bits/(Pixel*Frame)                       : 0.182
Stream size                              : 7.12 GiB (72%)
Writing library                          : x264 core 155 r2901 7d0ff22
Encoding settings                        : cabac=1 / ref=4 / deblock=1:0:0 / analyse=0x3:0x133 / me=umh / subme=7 / psy=1 / psy_rd=1.00:0.00 / mixed_ref=1 / me_range=16 / chroma_me=1 / trellis=1 / 8x8dct=1 / cqm=0 / deadzone=21,11 / fast_pskip=0 / chroma_qp_offset=-2 / threads=12 / lookahead_threads=2 / sliced_threads=0 / nr=0 / decimate=1 / interlaced=0 / bluray_compat=0 / constrained_intra=0 / bframes=3 / b_pyramid=2 / b_adapt=1 / b_bias=0 / direct=1 / weightb=1 / open_gop=0 / weightp=1 / keyint=250 / keyint_min=23 / scenecut=40 / intra_refresh=0 / rc_lookahead=40 / rc=2pass / mbtree=1 / bitrate=8737 / ratetol=1.0 / qcomp=0.60 / qpmin=0 / qpmax=69 / qpstep=4 / cplxblur=20.0 / qblur=0.5 / ip_ratio=1.40 / aq=1:1.00
Language                                 : English
Default                                  : Yes
Forced                                   : No
DURATION                                 : 01:59:53.770000000
NUMBER_OF_FRAMES                         : 172478
NUMBER_OF_BYTES                          : 7852980835
_STATISTICS_WRITING_APP                  : mkvmerge v28.2.0 ('The Awakening') 64-bit
_STATISTICS_WRITING_DATE_UTC             : 2019-01-09 16:17:11
_STATISTICS_TAGS                         : BPS DURATION NUMBER_OF_FRAMES NUMBER_OF_BYTES

Audio #1
ID                                       : 2
Format                                   : DTS
Format/Info                              : Digital Theater Systems
Mode                                     : 16
Format settings, Endianness              : Big
Codec ID                                 : A_DTS
Duration                                 : 1h 59mn
Bit rate mode                            : Constant
Bit rate                                 : 1 509 Kbps
Channel(s)                               : 2 channels
Channel positions                        : Front: L R
Sampling rate                            : 48.0 KHz
Bit depth                                : 24 bits
Compression mode                         : Lossy
Stream size                              : 1.26 GiB (13%)
Title                                    : German
Language                                 : German
Default                                  : Yes
Forced                                   : Yes

Audio #2
ID                                       : 3
Format                                   : DTS
Format/Info                              : Digital Theater Systems
Mode                                     : 16
Format settings, Endianness              : Big
Codec ID                                 : A_DTS
Duration                                 : 1h 59mn
Bit rate mode                            : Constant
Bit rate                                 : 1 509 Kbps
Channel(s)                               : 2 channels
Channel positions                        : Front: L R
Sampling rate                            : 48.0 KHz
Bit depth                                : 24 bits
Compression mode                         : Lossy
Stream size                              : 1.26 GiB (13%)
Title                                    : English
Language                                 : English
Default                                  : No
Forced                                   : No


Download:
Share Online Share OnlineShare OnlineShare Online
 

Kommentare